imdb
rating

7.4
Sweeney Todd: The Demon Barber of Fleet Street

Sweeney Todd: The Demon Barber of Fleet Street (2007)

Drama, Horror, Music

Full description

Sweeney Todd: The Demon Barber of Fleet Street - Il diabolico barbiere di Fleet Street (2007).H264.Italian.English.Ac3.5.1.sub.ita.eng.iCV-MIRCrew [Isohunt.to]

Size 1.935 GB   48 seeders     Added 2017-03-19 22:48:17

Sweeney Todd: The Demon Barber of Fleet Street - Il diabolico barbiere di Fleet Street (2007).H264.Italian.English.Ac3.5.1.sub.ita.eng.iCV-MIRCrew

[center]

[color=red][b][img]image[/img]
[u]NO FOUND ONLY ORIGINAL RELEASE[/u]

[img]image[/img]

My release is always in double track audio italian and Original audio
for select it use VLC or dvd player home
not use wmp 

Sweeney Todd - Il diabolico barbiere di Fleet Street (2007)

SOTTOTITOLI IN ITALIANO PER CANTATO  PRESENTI

[img]http://extraimage.net/images/2017/03/19/300bcaa0159bcd1af5541e4573602c7e.png[/img]

[URL=http://www.imdb.com/title/tt0408236/][IMG]image[/IMG][/URL] 

[img]image[/img]

Titolo originale 	Sweeney Todd: The Demon Barber of Fleet Street
Lingua originale 	Inglese
Paese di produzione 	Stati Uniti d'America, Regno Unito
Anno 	2007
Durata 	116 min
Rapporto 	1,85:1
Genere 	musicale, commedia, orrore
Regia 	Tim Burton
Soggetto 	da un adattamento di Christopher Bond del musical di Stephen Sondheim e Hugh Wheeler
Sceneggiatura 	John Logan
Produttore 	Walter F.Parkes, Laurie MacDonald, Richard D. Zanuck, John Logan
Produttore esecutivo 	Patrick McCormick
Casa di produzione 	DreamWorks Pictures, Warner Bros. Pictures, Parkes/MacDonald Productions, The Zanuck Company, Film IT, Tim Burton Productions
Distribuzione (Italia) 	Warner Bros. Pictures Italia
Fotografia 	Dariusz Wolski
Montaggio 	Chris Lebenzon
Effetti speciali 	Joss Williams
Musiche 	Stephen Sondheim
Scenografia 	Dante Ferretti, Francesca Lo Schiavo
Costumi 	Colleen Atwood
Trucco 	Neal Scanlan

[img]image[/img]


    Johnny Depp: Benjamin Barker/Sweeney Todd
    Helena Bonham Carter: Mrs. Nellie Lovett
    Alan Rickman: Giudice Turpin
    Timothy Spall: Messo Bamford
    Sacha Baron Cohen: Sig. Adolfo Pirelli
    Laura Michelle Kelly: Lucy Barker
    Jamie Campbell Bower: Anthony Hope
    Jayne Wisener: Johanna Barker
    Ed Sanders: Tobias Ragg
    Philip Philmar: Jonas Fogg


[img]image[/img]

Il barbiere Benjamin Barker viene ingiustamente arrestato, condannato e obbligato ad una vita di duro lavoro in Australia dal Giudice Turpin, il quale brama la bella e virtuosa moglie di Barker, Lucy..................

[img]image[/img]

The infamous story of Benjamin Barker, AKA Sweeney Todd, who sets up a barber shop down in London which is the basis for a sinister partnership with his fellow tenant, Mrs. Lovett. Based on the hit Broadway musical.

[img]image[/img]

[img]http://extraimage.net/images/2017/03/19/adc13a44d171ed10c9a3030b1b8b5fe0.png[/img]
[img]http://extraimage.net/images/2017/03/19/b4f91ced7e6ee86445ade5805266b48b.png[/img]
[img]http://extraimage.net/images/2017/03/19/680fd34cb3667af48abf70e835b03148.png[/img]
[img]http://extraimage.net/images/2017/03/19/e1b9285f328f49d48ab037b889291436.png[/img]


[img]image[/img]


[spoiler]
General
Unique ID                                : 23213355158338570612108710227460027801 (0x1176BAC5D0957BCB544F945C9884F599)
Complete name                            : Sweeney Todd - Il diabolico barbiere di Fleet Street (2007).ita.eng.sub.ita.eng.iCV-MIRCrew.mkv
Format                                   : Matroska
Format version                           : Version 2
File size                                : 1.80 GiB
Duration                                 : 1h 56mn
Overall bit rate                         : 2 217 Kbps
Movie name                               : VISIT www.icv-crew.org
Encoded date                             : UTC 2017-03-06 11:19:38
Writing application                      : Lavf54.63.100
Writing library                          : Lavf54.63.100
COPYRIGHT                                : robbyrs

Video
ID                                       : 1
Format                                   : AVC
Format/Info                              : Advanced Video Codec
Format profile                           : [email protected]
Format settings, CABAC                   : Yes
Format settings, ReFrames                : 2 frames
Codec ID                                 : V_MPEG4/ISO/AVC
Duration                                 : 1h 56mn
Bit rate                                 : 1 290 Kbps
Width                                    : 720 pixels
Height                                   : 404 pixels
Display aspect ratio                     : 16:9
Frame rate mode                          : Variable
Frame rate                               : 23.976 fps
Color space                              : YUV
Chroma subsampling                       : 4:2:0
Bit depth                                : 8 bits
Scan type                                : Progressive
Bits/(Pixel*Frame)                       : 0.185
Stream size                              : 1.04 GiB (58%)
Writing library                          : x264 core 130 r2273
Encoding settings                        : cabac=1 / ref=2 / deblock=1:0:0 / analyse=0x1:0x131 / me=hex / subme=7 / psy=1 / psy_rd=1.00:0.00 / mixed_ref=0 / me_range=16 / chroma_me=1 / trellis=1 / 8x8dct=0 / cqm=0 / deadzone=21,11 / fast_pskip=1 / chroma_qp_offset=-2 / threads=12 / lookahead_threads=2 / sliced_threads=0 / nr=0 / decimate=1 / interlaced=0 / bluray_compat=0 / constrained_intra=0 / bframes=3 / b_pyramid=0 / b_adapt=1 / b_bias=0 / direct=3 / weightb=1 / open_gop=0 / weightp=2 / keyint=230 / keyint_min=23 / scenecut=40 / intra_refresh=0 / rc_lookahead=40 / rc=2pass / mbtree=1 / bitrate=1290 / ratetol=1.0 / qcomp=0.60 / qpmin=10 / qpmax=69 / qpstep=4 / cplxblur=20.0 / qblur=0.5 / vbv_maxrate=24000 / vbv_bufsize=24000 / nal_hrd=none / ip_ratio=1.40 / aq=1:1.00
Language                                 : Italian
Default                                  : Yes
Forced                                   : No
DURATION                                 : 01:56:22.642000000
NUMBER_OF_FRAMES                         : 167416
NUMBER_OF_BYTES                          : 7409757818
_STATISTICS_WRITING_APP                  : mkvmerge v8.6.1 ('Flying') 64bit
_STATISTICS_WRITING_DATE_UTC             : 2016-01-11 10:59:05
_STATISTICS_TAGS                         : BPS DURATION NUMBER_OF_FRAMES NUMBER_OF_BYTES

Audio #1
ID                                       : 2
Format                                   : AC-3
Format/Info                              : Audio Coding 3
Mode extension                           : CM (complete main)
Codec ID                                 : A_AC3
Duration                                 : 1h 56mn
Bit rate mode                            : Constant
Bit rate                                 : 448 Kbps
Channel(s)                               : 6 channels
Channel positions                        : Front: L C R, Side: L R, LFE
Sampling rate                            : 48.0 KHz
Bit depth                                : 16 bits
Compression mode                         : Lossy
Delay relative to video                  : 1mn 5s
Stream size                              : 373 MiB (20%)
Language                                 : Italian
Default                                  : Yes
Forced                                   : No
DURATION                                 : 01:56:22.656000000
NUMBER_OF_FRAMES                         : 218208
NUMBER_OF_BYTES                          : 558612480
_STATISTICS_WRITING_APP                  : mkvmerge v8.6.1 ('Flying') 64bit
_STATISTICS_WRITING_DATE_UTC             : 2016-01-11 10:59:05
_STATISTICS_TAGS                         : BPS DURATION NUMBER_OF_FRAMES NUMBER_OF_BYTES

Audio #2
ID                                       : 3
Format                                   : AC-3
Format/Info                              : Audio Coding 3
Mode extension                           : CM (complete main)
Codec ID                                 : A_AC3
Duration                                 : 1h 56mn
Bit rate mode                            : Constant
Bit rate                                 : 448 Kbps
Channel(s)                               : 6 channels
Channel positions                        : Front: L C R, Side: L R, LFE
Sampling rate                            : 48.0 KHz
Bit depth                                : 16 bits
Compression mode                         : Lossy
Delay relative to video                  : 1mn 5s
Stream size                              : 373 MiB (20%)
Language                                 : English
Default                                  : No
Forced                                   : No
DURATION                                 : 01:56:22.656000000
NUMBER_OF_FRAMES                         : 218208
NUMBER_OF_BYTES                          : 558612480
_STATISTICS_WRITING_APP                  : mkvmerge v8.6.1 ('Flying') 64bit
_STATISTICS_WRITING_DATE_UTC             : 2016-01-11 10:59:05
_STATISTICS_TAGS                         : BPS DURATION NUMBER_OF_FRAMES NUMBER_OF_BYTES

Text #1
ID                                       : 4
Format                                   : VobSub
Codec ID                                 : S_VOBSUB
Codec ID/Info                            : The same subtitle format used on DVDs
Title                                    : Inglese
Language                                 : English
Default                                  : No
Forced                                   : No
DURATION                                 : 01:52:30.671000000
NUMBER_OF_FRAMES                         : 1366
NUMBER_OF_BYTES                          : 4816697
_STATISTICS_WRITING_APP                  : mkvmerge v8.6.1 ('Flying') 64bit
_STATISTICS_WRITING_DATE_UTC             : 2016-01-11 10:59:05
_STATISTICS_TAGS                         : BPS DURATION NUMBER_OF_FRAMES NUMBER_OF_BYTES

Text #2
ID                                       : 5
Format                                   : VobSub
Codec ID                                 : S_VOBSUB
Codec ID/Info                            : The same subtitle format used on DVDs
Title                                    : Inglese
Language                                 : English
Default                                  : No
Forced                                   : No
DURATION                                 : 01:52:30.671000000
NUMBER_OF_FRAMES                         : 1366
NUMBER_OF_BYTES                          : 4816697
_STATISTICS_WRITING_APP                  : mkvmerge v8.6.1 ('Flying') 64bit
_STATISTICS_WRITING_DATE_UTC             : 2016-01-11 10:59:05
_STATISTICS_TAGS                         : BPS DURATION NUMBER_OF_FRAMES NUMBER_OF_BYTES

Text #3
ID                                       : 6
Format                                   : VobSub
Codec ID                                 : S_VOBSUB
Codec ID/Info                            : The same subtitle format used on DVDs
Title                                    : Italiano
Language                                 : Italian
Default                                  : No
Forced                                   : No
DURATION                                 : 01:54:29.991000000
NUMBER_OF_FRAMES                         : 1253
NUMBER_OF_BYTES                          : 4529764
_STATISTICS_WRITING_APP                  : mkvmerge v8.6.1 ('Flying') 64bit
_STATISTICS_WRITING_DATE_UTC             : 2016-01-11 10:59:05
_STATISTICS_TAGS                         : BPS DURATION NUMBER_OF_FRAMES NUMBER_OF_BYTES

Menu
00:00:00.000                             : :00:00:00.000
00:03:27.791                             : :00:03:27.791
00:08:38.017                             : :00:08:38.017
00:11:50.043                             : :00:11:50.043
00:16:36.662                             : :00:16:36.662
00:21:36.629                             : :00:21:36.629
00:24:08.280                             : :00:24:08.280
00:25:04.336                             : :00:25:04.336
00:30:01.800                             : :00:30:01.800
00:34:52.924                             : :00:34:52.924
00:39:32.370                             : :00:39:32.370
00:45:05.536                             : :00:45:05.536
00:51:14.905                             : :00:51:14.905
00:56:10.701                             : :00:56:10.701
01:01:41.031                             : :01:01:41.031
01:05:13.076                             : :01:05:13.076
01:11:05.094                             : :01:11:05.094
01:19:07.076                             : :01:19:07.076
01:21:46.235                             : :01:21:46.235
01:28:26.801                             : :01:28:26.801
01:34:36.004                             : :01:34:36.004
01:42:32.813                             : :01:42:32.813
01:46:10.531                             : :01:46:10.531
01:51:43.864                             : :01:51:43.864


[/spoiler]

[/color][/b][/center]
Sweeney Todd - Il diabolico barbiere di Fleet Street (2007).ita.eng.sub.ita.eng.iCV-MIRCrew.mkv 1.935 GB
Gathering some info...

Register and log in Isohunt and see no captcha anymore!

4000 symbols left
Hash 92d9c9809d16becef4577db43b778157a7e2c359

Related torrents for "Sweeney Todd: The Demon Barber of Fleet Street - Il diabolico barbiere di Fleet Street (2007).H264.Italian.English.Ac3.5.1.sub.ita.eng.iCV-MIRCrew [Isohunt.to]"

Torrent search:

italian english h264 2007