Ubai Ai, Fuyu | Red vs Blue: Season 6 (Movie) | The Dark Tower (2017) [720p] English

Drama

Rapimento E Riscatto,Xvid Ita Ac3 scambioetico org

  • Download 5x Faster
  • Download torrent
  • Direct Download
  • Rate this torrent +  |  -

Torrent info

Name:Rapimento E Riscatto,Xvid Ita Ac3 scambioetico org

Total Size: 1.37 GB

Magnet: Magnet Link

Seeds: 2

Leechers: 2

Stream: Watch Full Movie @ Movie4u

Last Updated: 2015-09-07 11:09:01 (Update Now)

Torrent added: 2008-10-17 07:50:10



VPN For Torrents

Torrent Files List


Rapimento e riscatto.avi (Size: 1.37 GB) (Files: 1)

 Rapimento e riscatto.avi

1.37 GB
4div c݇бs-ar2 h1P1ȉ11

tracker

leech seeds
5v claay62 ba111

Torrent description

Rapimento e riscatto,[Xvid - Ita Ac3][www.tntvillage.scambioetico.org]

Scheda del film

Titolo:Rapimento e riscatto
Titolo originale:Proof of life
Nazionalità:USA
Anno:2000
Genere:Drammatico
Regia:Taylor Hackford
Produzione: Anvil Films, Bel Air Entertainment, Castle Rock Entertainment
Distribuzione:Warner Bros
Data di uscita:02 Marzo 2001 (cinema)


Cast

Meg Ryan, Russell Crowe, David Morse


Scheda tecnica del DivX

General
Complete name : Rapimento e riscatto.avi
Format : AVI
Format/Info : Audio Video Interleave
File size : 1.37 GiB
Duration : 2h 9mn
Overall bit rate : 1508 Kbps
Writing application : VirtualDubMod 1.5.4.1 (build 2178/release)
Writing library : VirtualDubMod build 2178/release
IAS1 : Italiano
IAS2 : English

Video
Format : MPEG-4 Visual
Format profile : Streaming [email protected]
Format settings, BVOP : Yes
Format settings, QPel : No
Format settings, GMC : No warppoints
Format settings, Matrix : Custom
Codec ID : XVID
Codec ID/Hint : XviD
Duration : 2h 9mn
Bit rate : 992 Kbps
Width : 656 pixels
Height : 272 pixels
Display aspect ratio : 2.412
Frame rate : 25.000 fps
Resolution : 8 bits
Colorimetry : 4:2:0
Scan type : Progressive
Bits/(Pixel*Frame) : 0.222
Stream size : 921 MiB (66%)
Writing library : XviD 1.2.0.dev47 (UTC 2006-11-01)

Audio #1
Format : AC-3
Format/Info : Audio Coding 3
Codec ID : 2000
Duration : 2h 9mn
Bit rate mode : Constant
Bit rate : 384 Kbps
Channel(s) : 6 channels
Channel positions : Front: L C R, Rear: L R, LFE
Sampling rate : 48.0 KHz
Video delay : 8ms
Stream size : 357 MiB (25%)
Alignment : Split accross interleaves
Interleave, duration : 96 ms (2.40 video frames)
Interleave, preload duration : 96 ms

Audio #2
Format : MPEG Audio
Format version : Version 1
Format profile : Layer 3
Codec ID : 55
Codec ID/Hint : MP3
Duration : 2h 9mn
Bit rate mode : Variable
Bit rate : 118 Kbps
Channel(s) : 2 channels
Sampling rate : 48.0 KHz
Resolution : 16 bits
Stream size : 109 MiB (8%)
Alignment : Aligned on interleaves
Interleave, duration : 24 ms (0.60 video frame)
Interleave, preload duration : 475 ms

related torrents

Torrent name

health leech seeds Size
 


comments (0)

Main Menu

 

script data-cfasync="false" src="//d2ghscazvn398x.cloudfront.net/?cshgd=690275">