Ubisoft обнародовала системные требования Tom Clancy's The Division | Неистовый шутер Neurovoider выйдет на современных консолях | Сюжетный трейлер Far Cry: Primal посвятили охотнику Таккару

Anime - Other

Itsudatte my Santa Komplett 1 & 2 ADBT

  • Download 5x Faster
  • Download torrent
  • Direct Download
  • Rate this torrent +  |  -
Itsudatte my Santa Komplett 1 & 2 ADBT

Download FREE And Anonymously


Torrent info

Name:Itsudatte my Santa Komplett 1 & 2 ADBT

Total Size: 437.10 MB

Magnet: Magnet Link

Seeds: 0

Leechers: 1

Stream: Watch Full Movie @ Movie4u

Last Updated: 2017-02-26 07:12:36 (Update Now)

Torrent added: 2008-10-17 07:48:29



VPN For Torrents

Torrent Files List


Itsudatte.my.Santa 01.avi (Size: 437.10 MB) (Files: 2)

 Itsudatte.my.Santa 01.avi

214.78 MB

 Itsudatte.my.Santa 02.avi

222.33 MB
 

tracker

leech seeds
 

Torrent description

Itsudatte my Santa - Komplett 1 & 2 DVD Rip Deutsch

Der junge Santa ist am 24. Dezember geboren, seine Eltern haben ihm diesen seltsamen Namen gegeben
und er hasst nichts mehr als das Weihnachtsfest und alles, was damit zusammenhängt.
Eines Weihnachtsabends, als Santa wieder einmal allein vor sich hingrummelt und die ganze Welt
verachtet, steht auf einmal ein junges Mädchen vor ihm und behauptet, Santa Claus zu sein.
Sie bietet ihm an, gemeinsam den Abend und die Nacht zu verbringen und schafft es mit ihrem
einnehmenden Wesen, Santas Welt ein bisschen fröhlicher und besinnlicher zu gestalten.


Vollständiger Name : C:Users3333DesktopItsudatte my Santa - KomplettItsudatte.my.Santa 01.avi
Format : AVI
Format/Info : Audio Video Interleave
Dateigre : 215 MiB
Duration : 28min
Gesamte Bitrate : 1 055 Kbps
verwendete Encoder-Bibliothek : TMPGEnc 4.0 XPress Version. 4.2.3.193

Video
Format : MPEG-4 Visual
Format profile : Streaming [email protected]
Format settings, BVOP : Ja
Format settings, QPel : Nein
Format settings, GMC : No warppoints
Format settings, Matrix : Default
Muxing mode : Packet Bitstream
Codec ID : XVID
Codec ID/Hint : XviD
Duration : 28min
Bitrate : 856 Kbps
Breite : 704 Pixel
Höhe : 560 Pixel
Bildseitenverhältnis : 5/4
Bildwiederholungsrate : 25,000 FPS
Auflösung : 24 bits
Colorimetry : 4:2:0
Scan type : Progressive
Bits/(Pixel*Frame) : 0.087
Stream size : 174 MiB (81)
verwendete Encoder-Bibliothek : XviD 1.1.2 (UTC 2006-11-01)

Audio
Format : AC-3
Format/Info : Audio Coding 3
Codec ID : 2000
Duration : 28min
Bitraten-Modus : Constant
Bitrate : 192 Kbps
Kanäle : 2 Kanäle
Channel positions : L R
Samplingrate : 48,0 KHz
Stream size : 39,1 MiB (18)
Alignment : Aligned on interleaves
Interleave, duration : 240 ms (6,00 video frames)
Interleave, preload duration : 224 ms

Allgemein
Vollständiger Name : C:Users3333DesktopItsudatte my Santa - KomplettItsudatte.my.Santa 02.avi
Format : AVI
Format/Info : Audio Video Interleave
Dateigre : 222 MiB
Duration : 27min
Gesamte Bitrate : 1 127 Kbps
verwendete Encoder-Bibliothek : TMPGEnc 4.0 XPress Version. 4.2.3.193

Video
Format : MPEG-4 Visual
Format profile : Streaming [email protected]
Format settings, BVOP : Ja
Format settings, QPel : Nein
Format settings, GMC : No warppoints
Format settings, Matrix : Default
Muxing mode : Packet Bitstream
Codec ID : XVID
Codec ID/Hint : XviD
Duration : 27min
Bitrate : 928 Kbps
Breite : 704 Pixel
Höhe : 560 Pixel
Bildseitenverhältnis : 5/4
Bildwiederholungsrate : 25,000 FPS
Auflösung : 24 bits
Colorimetry : 4:2:0
Scan type : Progressive
Bits/(Pixel*Frame) : 0.094
Stream size : 183 MiB (82)
verwendete Encoder-Bibliothek : XviD 1.1.2 (UTC 2006-11-01)

Audio
Format : AC-3
Format/Info : Audio Coding 3
Codec ID : 2000
Duration : 27min
Bitraten-Modus : Constant
Bitrate : 192 Kbps
Kanäle : 2 Kanäle
Channel positions : L R
Samplingrate : 48,0 KHz
Stream size : 37,9 MiB (17)
Alignment : Aligned on interleaves
Interleave, duration : 240 ms (6,00 video frames)
Interleave, preload duration : 224 ms

Audio: deutsch

related torrents

Torrent name

health leech seeds Size

Itsudatte My Santa!

0 0 12.00 MB 0
 


comments (0)

Main Menu

 

script data-cfasync="false" src="//d2ghscazvn398x.cloudfront.net/?cshgd=690275">